<svg xmlns="http://www.w3.org/2000/svg">
<defs>
<font
   id="FontID0"
   horiz-adv-x="694"
   font-variant="normal"
   className="str0"
   style="fill-rule:nonzero"
   font-style="normal"
   font-weight="400"
   horiz-origin-x="0"
   horiz-origin-y="0"
   vert-origin-x="512"
   vert-origin-y="768"
   vert-adv-y="1024">
	<font-face
   font-family="Kiona"
   id="font-face2">
		<font-face-src>
			<font-face-name
   name="Kiona Regular" />
		</font-face-src>
	</font-face>
   <missing-glyph
   id="missing-glyph6"><path
     d="M0 0z"
     id="path4" /></missing-glyph>
   <glyph
   unicode=","
   horiz-adv-x="223"
   d="M61.0047 -48.9991l34.9925 0 50.0043 97.0024 -52.0052 0 -32.9915 -97.0024z"
   id="glyph8" />
   <glyph
   unicode="-"
   horiz-adv-x="546"
   d="M469.996 302.004l0 45.9983 -391.995 0 0 -45.9983 391.995 0z"
   id="glyph10" />
   <glyph
   unicode="1"
   horiz-adv-x="375"
   d="M44.0069 443.007l240.993 230.994 0 -674.001 -45.9983 0 0 566.003 -194.995 -185.999 0 63.0022z"
   id="glyph12" />
   <glyph
   unicode="2"
   horiz-adv-x="537"
   d="M472.001 44.9956l0 -44.9956 -392.998 0c23.3264,32.0025 64.3252,87.8327 122.996,167.505 58.6712,79.658 111.66,151.155 158.996,214.492 25.3318,34.0078 38.0047,69.0044 38.0047,105.004 0,8.66211 -0.334229,15.3328 -1.00269,19.9981 -6.0022,36.6677 -23.3264,64.0049 -52.0005,81.9976 -22.0034,16.0012 -46.6668,24.0088 -73.99,24.0088 -11.3359,0 -22.0034,-1.33692 -32.0025,-4.01075 -40.6646,-9.33057 -77.3323,-33.9939 -110.003,-73.99 -6.0022,-6.0022 -11.6702,-12.3386 -17.0039,-19.0093 -5.33374,-6.65673 -8.99634,-11.322 -11.0017,-13.9958l-35.9993 26.0003 29.0083 37.002c19.3296,23.3264 40.4974,42.6699 63.4896,58.0027 23.0061,15.3328 46.8339,25.666 71.5111,30.9998 15.3328,3.32837 29.3286,4.99951 42.0015,4.99951 35.3308,0 68.6563,-10.6675 99.9903,-32.0025 39.3416,-28.0056 63.0022,-65.3279 71.0098,-111.995 1.32299,-12.0044 1.99145,-21.0007 1.99145,-27.0029 0,-43.3384 -14.9985,-86.3426 -44.9956,-128.999 -84.003,-111.34 -161.335,-216.01 -231.997,-314.008l303.995 0z"
   id="glyph14" />
   <glyph
   unicode="3"
   horiz-adv-x="560"
   d="M400.003 349.994c30.6655,-24.6633 53.8248,-51.332 69.4918,-79.9922 15.667,-28.6741 23.5075,-58.0027 23.5075,-87.9998 0,-34.0078 -9.6648,-65.495 -29.0083,-94.5033 -19.3296,-28.9944 -45.497,-52.0005 -78.4882,-69.0044 -33.0051,-16.99 -68.8373,-25.4989 -107.51,-25.4989 -34.6624,0 -67.1662,6.83777 -97.4975,20.4994 -30.3313,13.6755 -55.496,32.5038 -75.494,56.4987 -19.9981,24.0088 -33.0051,50.6775 -39.0073,80.0061l43.0042 30.9998c0,-25.3318 7.65942,-48.9924 23.0061,-70.9959 15.3328,-22.0034 35.8322,-39.3416 61.4982,-52.0005 25.666,-12.6729 53.8248,-19.0093 84.4904,-19.0093 30.6655,0 59.0054,6.33643 85.0056,19.0093 26.0003,12.6589 46.6668,29.9971 61.9995,52.0005 15.3328,22.0034 23.0061,45.9983 23.0061,71.9986 0,22.658 -6.67066,45.3298 -20.012,68.0017 -13.3274,22.658 -32.3228,43.9929 -57,63.991l-49.9951 38.0047 37.002 37.002c17.3381,18.6611 29.3286,35.4979 35.9993,50.4965 6.67066,14.9985 9.99903,32.1696 9.99903,51.4992 0,32.6709 -12.3386,60.5094 -37.002,83.5016 -24.6633,23.0061 -54.3262,34.4952 -89.0025,34.4952 -34.6624,0 -64.3252,-11.4891 -88.9885,-34.4952 -24.6773,-22.9922 -37.002,-50.8307 -37.002,-83.5016l-45.9983 0c0,29.9971 7.82654,57.5014 23.4935,82.4989 15.667,24.9976 36.6677,44.8424 63.0022,59.5067 26.3345,14.6643 54.8275,22.0034 85.4931,22.0034 31.334,0 60.1752,-7.33912 86.5097,-22.0034 26.3345,-14.6643 47.1681,-34.5092 62.5009,-59.5067 15.3328,-24.9976 22.9922,-52.5018 22.9922,-82.4989 0,-27.9917 -4.8324,-51.8334 -14.4972,-71.4972 -9.6648,-19.6638 -24.8304,-40.1632 -45.497,-61.4982 0.668459,-0.668459 1.82433,-1.67115 3.49548,-3.00806 1.67115,-1.32299 3.82971,-2.99414 6.50354,-4.99951z"
   id="glyph16" />
   <glyph
   unicode="4"
   horiz-adv-x="640"
   d="M140 185.999l462.002 0 0 -44.9956 -158.996 0 0 -141.003 -45.0095 0 0 141.003 -343.003 0 338.003 509.003 50.0091 0 0 -475.009 -45.0095 0 0 402.008 -257.997 -391.006z"
   id="glyph18" />
   <glyph
   unicode="5"
   horiz-adv-x="561"
   d="M294.999 -7.00489c39.3276,0 75.494,8.67603 108.499,26.0003 33.0051,17.3381 59.1725,40.9988 78.5021,71.0098 19.3296,29.9971 28.9944,62.668 28.9944,97.9988 0,34.6624 -9.6648,66.4977 -28.9944,95.4921 -19.3296,29.0083 -45.6641,51.8334 -79.0034,68.5031 -33.3254,16.6697 -69.3247,24.9976 -107.998,24.9976l-142.994 -1.00269 16.0012 229.003 337.989 0 0 45.0095 -379.991 0 -24.0088 -320.999 193.003 0.988762c23.3403,0 45.6641,-3.6626 66.999,-11.0017 21.335,-7.32519 39.9961,-17.9927 55.9973,-31.9885 14.6643,-13.3413 26.1674,-28.6741 34.5092,-46.0122 8.32788,-17.3242 12.4918,-34.9966 12.4918,-52.9893 0,-27.3372 -7.49231,-52.3347 -22.4908,-75.0066 -15.0125,-22.658 -35.5119,-40.6646 -61.5121,-53.992 -26.0003,-13.3413 -54.6604,-20.012 -85.9944,-20.012 -49.3267,0 -90.6597,13.6755 -123.999,41.0127 -14.6643,11.322 -26.1674,24.3291 -34.4952,38.9934 -8.34181,14.6643 -12.5057,29.6628 -12.5057,44.9956l-45.9983 0c0,-29.9971 9.83191,-58.1559 29.4957,-84.4904 19.6638,-26.3345 46.1654,-47.3352 79.5048,-63.0022 33.3254,-15.667 69.3386,-23.5075 107.998,-23.5075z"
   id="glyph20" />
   <glyph
   unicode="6"
   horiz-adv-x="543"
   d="M287.994 650.006l51.0117 0c-39.3416,-74.0039 -70.3413,-133.678 -92.9993,-179.008l-61.0108 -117.997c28.6741,13.3274 61.6653,19.9981 99.0015,19.9981 39.3416,0 75.508,-8.49499 108.499,-25.4989 33.0051,-17.0039 59.1725,-39.9961 78.5021,-69.0044 19.3296,-28.9944 28.9944,-60.4955 28.9944,-94.5033 0,-34.6624 -9.6648,-66.4977 -28.9944,-95.4921 -19.3296,-28.9944 -45.497,-52.1676 -78.5021,-69.5058 -32.9912,-17.3242 -69.1576,-26.0003 -108.499,-26.0003 -39.3276,0 -75.6611,8.67603 -109.001,26.0003 -33.3254,17.3381 -59.827,40.5114 -79.4909,69.5058 -19.6777,28.9944 -29.5097,60.8297 -29.5097,95.4921 0,29.3425 7.67335,57 23.0061,83.0003l198.992 383.013zm-3.99682 -322.002c-34.6624,0 -64.9937,-6.33643 -90.9939,-19.0093 -26.0003,-12.6589 -45.9983,-29.9971 -60.0081,-52.0005 -13.9958,-21.9895 -21.0007,-46.3325 -21.0007,-73.0012 0,-25.9863 7.67335,-50.1622 23.0061,-72.4999 15.3328,-22.3237 36.1664,-39.9961 62.5009,-52.9893 26.3345,-13.0071 55.1618,-19.5106 86.4957,-19.5106 30.6655,0 59.0054,6.50354 85.0056,19.5106 26.0003,12.9932 46.6668,30.6655 61.9995,52.9893 15.3328,22.3377 22.9922,46.5136 22.9922,72.4999 0,26.0003 -7.65942,50.0091 -22.9922,72.0125 -15.3328,21.9895 -35.9993,39.4948 -61.9995,52.4879 -26.0003,13.0071 -54.3401,19.5106 -85.0056,19.5106z"
   id="glyph22" />
   <glyph
   unicode="7"
   horiz-adv-x="582"
   d="M525.993 650.006l-340.997 -650.006 -50.9978 0 317.003 604.997 -390.004 0 0 45.0095 464.996 0z"
   id="glyph24" />
   <glyph
   unicode="8"
   horiz-adv-x="552"
   d="M375.994 351.999c36.6677,-15.3328 66.0103,-38.1718 87.9998,-68.5031 22.0034,-30.3313 33.0051,-63.8239 33.0051,-100.492 0,-34.0078 -9.6648,-65.676 -28.9944,-95.0047 -19.3435,-29.3286 -45.5109,-52.5018 -78.5021,-69.5058 -33.0051,-16.99 -68.8373,-25.4989 -107.496,-25.4989 -38.6731,0 -74.6724,8.50892 -108.012,25.4989 -33.3254,17.0039 -59.6599,40.1771 -78.9895,69.5058 -19.3435,29.3286 -29.0083,60.9968 -29.0083,95.0047 0,36.6677 11.1688,70.1603 33.5065,100.492 22.3237,30.3313 51.8334,53.1703 88.5011,68.5031 -23.3403,15.3328 -42.1686,35.3308 -56.4987,59.9942 -14.344,24.6773 -21.5021,51.0117 -21.5021,79.0034 0,29.9971 7.65942,57.6685 22.9922,83.0003 15.3328,25.3318 36.1664,45.3298 62.5009,60.0081 26.3345,14.6643 55.1757,21.9895 86.5097,21.9895 31.334,0 60.1613,-7.32519 86.4957,-21.9895 26.3345,-14.6782 47.1681,-34.6763 62.5009,-60.0081 15.3328,-25.3318 22.9922,-53.0032 22.9922,-83.0003 0,-28.6602 -6.99096,-55.1618 -21.0007,-79.4909 -13.9958,-24.343 -32.9912,-44.174 -57,-59.5067zm-220.995 138.998c0,-21.335 5.83509,-41.333 17.5053,-59.9942 11.6562,-18.6751 27.1561,-33.3394 46.4996,-44.0069 19.3296,-10.6675 40.3303,-16.0012 63.0022,-16.0012 22.658,0 43.8258,5.33374 63.4896,16.0012 19.6777,10.6675 35.1776,25.3318 46.4996,44.0069 11.3359,18.6611 17.0039,38.6592 17.0039,59.9942 0,21.335 -5.66797,41.1659 -17.0039,59.5067 -11.322,18.3269 -26.8219,32.8241 -46.4996,43.4916 -19.6638,10.6675 -40.8317,16.0012 -63.4896,16.0012 -22.6719,0 -43.6726,-5.33374 -63.0022,-16.0012 -19.3435,-10.6675 -34.8434,-25.1647 -46.4996,-43.4916 -11.6702,-18.3408 -17.5053,-38.1718 -17.5053,-59.5067zm127.007 -452.003c30.6655,0 58.9915,6.50354 84.9917,19.5106 26.0003,12.9932 46.6668,30.4984 61.9995,52.5018 15.3328,21.9895 23.0061,45.9983 23.0061,71.9986 0,25.3318 -7.67335,48.9924 -23.0061,70.9959 -15.3328,22.0034 -35.9993,39.4948 -61.9995,52.5018 -26.0003,12.9932 -54.3262,19.4967 -84.9917,19.4967 -30.6795,0 -59.0054,-6.50354 -85.0056,-19.4967 -26.0003,-13.0071 -46.6668,-30.4984 -61.9995,-52.5018 -15.3328,-22.0034 -23.0061,-45.6641 -23.0061,-70.9959 0,-26.0003 7.67335,-50.0091 23.0061,-71.9986 15.3328,-22.0034 35.9993,-39.5087 61.9995,-52.5018 26.0003,-13.0071 54.3262,-19.5106 85.0056,-19.5106z"
   id="glyph26" />
   <glyph
   unicode="A"
   horiz-adv-x="694"
   d="M177.001 164.998l-77.0019 -164.998 -49.996 0 305.996 658.001 289.004 -658.001 -49.0012 0 -73.0007 164.998 -346 0zm177.001 382.003l-156.001 -337.003 305.001 0 -149 337.003z"
   id="glyph28" />
   <glyph
   unicode="C"
   horiz-adv-x="684"
   d="M379.004 -7.00053c49.9995,0 97.3336,10.8327 141.992,32.4982 44.6686,21.6654 82.6687,52.1721 114,91.4998l-35.9984 28.0021c-27.3282,-33.333 -60.1684,-59.3335 -98.5003,-78.0016 -38.3319,-18.6681 -78.8264,-28.0021 -121.493,-28.0021 -51.3372,0 -98.6713,12.8343 -142.002,38.5029 -43.3309,25.6686 -77.8306,60.5003 -103.499,104.505 -25.6686,43.9947 -38.5029,91.9926 -38.5029,143.994 0,52.0011 12.8343,99.999 38.5029,144.004 25.6686,43.9947 60.1684,78.8365 103.499,104.495 43.3309,25.6686 90.665,38.5029 142.002,38.5029 39.9916,0 78.1626,-8.32822 114.493,-24.9947 36.3404,-16.6665 67.8328,-40.0016 94.5072,-70.0053l34.9926 30.9995c-31.9953,34.6707 -69.1604,61.5061 -111.496,80.5061 -42.3351,19 -86.5008,28.495 -132.497,28.495 -59.3335,0 -114.342,-14.9968 -165.005,-45.0006 -50.6633,-30.0037 -90.665,-70.3373 -119.995,-121.001 -29.3399,-50.6633 -44.0048,-105.994 -44.0048,-166.001 0,-59.9974 14.6649,-115.499 44.0048,-166.494 29.3298,-51.0053 69.3314,-91.4998 119.995,-121.504 50.6633,-30.0037 105.672,-45.0006 165.005,-45.0006z"
   id="glyph30" />
   <glyph
   unicode="E"
   horiz-adv-x="601"
   d="M512 0l0 46.9969 -375.998 0 0 255.005 292.998 0 0 45.9948 -292.998 0 0 256 375.998 0 0 46.0022 -420.998 0 0 -649.999 420.998 0z"
   id="glyph32" />
   <glyph
   unicode="G"
   horiz-adv-x="708"
   d="M613.001 323.003l-261.003 0 0 -45 213.999 0 0 -233.002 -187.995 0c-50.6689,0 -97.6659,12.83 -140.998,38.4973 -43.3396,25.6673 -77.6675,60.1707 -103.006,103.503 -25.3308,43.3323 -37.9999,90.6657 -37.9999,142 0,51.3346 12.6691,98.4998 37.9999,141.503 25.3381,42.9958 59.666,77.1628 103.006,102.494 43.3323,25.3381 90.3292,37.9999 140.998,37.9999 38.6655,0 75.9997,-7.82673 111.995,-23.4948 36.003,-15.6681 67.3391,-37.8389 94.0012,-66.5053l33.0039 30.9997c-30.6705,33.3404 -66.8344,59.3368 -108.499,78.004 -41.6718,18.6671 -85.1724,28.0007 -130.502,28.0007 -59.3368,0 -114,-14.8342 -164.003,-44.5026 -49.996,-29.6684 -89.6636,-69.6652 -118.996,-119.998 -29.3393,-50.3325 -44.0052,-105.171 -44.0052,-164.5 0,-60.0025 14.666,-115.17 44.0052,-165.502 29.3319,-50.3325 68.9996,-90.1683 118.996,-119.5 50.0033,-29.3319 104.666,-43.9979 164.003,-43.9979l234.999 0 0 323.003z"
   id="glyph34" />
   <glyph
   unicode="I"
   horiz-adv-x="250"
   d="M147.998 0l0 649.999 -45 0 0 -649.999 45 0z"
   id="glyph36" />
   <glyph
   unicode="J"
   horiz-adv-x="572"
   d="M237.999 -7.00489c35.3308,0 68.1688,7.00489 98.5001,21.0007 30.3313,14.0098 56.4987,34.3421 78.5021,61.0108 47.3352,57.3203 70.9959,134.667 70.9959,231.997l0 343.003 -44.9956 0 0 -343.003c0,-86.0083 -20.3323,-153.342 -60.9968,-202 -35.9993,-44.0069 -83.3345,-66.0103 -142.006,-66.0103 -35.9993,0 -68.6702,10.013 -97.9988,30.011 -29.3286,19.9981 -53.0032,48.324 -70.9959,84.9917l-40.9988 -19.9981c21.321,-43.9929 50.6636,-78.5021 87.9998,-103.5 37.3223,-24.9976 78.0008,-37.5033 121.994,-37.5033z"
   id="glyph38" />
   <glyph
   unicode="L"
   horiz-adv-x="580"
   d="M500.998 0l0 45 -364.996 0 0 604.999 -45 0 0 -649.999 409.996 0z"
   id="glyph40" />
   <glyph
   unicode="O"
   horiz-adv-x="756"
   d="M378.997 -7.00017c59.3368,0 114.336,14.8342 165.005,44.5026 50.6616,29.6611 90.6657,69.9944 119.998,121 29.3319,50.9981 43.9979,106.495 43.9979,166.497 0,60.0025 -14.666,115.499 -43.9979,166.497 -29.3319,51.0054 -69.336,91.3387 -119.998,121 -50.6689,29.6684 -105.668,44.5026 -165.005,44.5026 -59.3295,0 -114.329,-14.8342 -164.998,-44.5026 -50.6689,-29.6611 -90.6657,-69.9944 -119.998,-121 -29.3319,-50.9981 -43.9979,-106.495 -43.9979,-166.497 0,-60.0025 14.666,-115.499 43.9979,-166.497 29.3319,-51.0054 69.3287,-91.3387 119.998,-121 50.6689,-29.6684 105.668,-44.5026 164.998,-44.5026zm0 617.997c51.3346,0 98.668,-12.83 142,-38.4973 43.3396,-25.6673 77.6675,-60.3316 103.006,-104 25.3308,-43.6688 37.9999,-91.4996 37.9999,-143.5 0,-52.0002 -12.6691,-99.831 -37.9999,-143.5 -25.3381,-43.6688 -59.666,-78.3331 -103.006,-104 -43.3323,-25.6673 -90.6657,-38.4973 -142,-38.4973 -51.3273,0 -98.6607,12.83 -141.993,38.4973 -43.3396,25.6673 -77.8357,60.3316 -103.503,104 -25.6673,43.6688 -38.4973,91.4996 -38.4973,143.5 0,52.0002 12.83,99.831 38.4973,143.5 25.6673,43.6688 60.1634,78.3331 103.503,104 43.3323,25.6673 90.6657,38.4973 141.993,38.4973z"
   id="glyph42" />
   <glyph
   unicode="P"
   horiz-adv-x="594"
   d="M136.997 0l0 282.004 186.006 0c37.9999,0 73.1616,8.33144 105.5,24.9943 32.331,16.6702 57.9983,39.1702 76.9945,67.5001 19.0036,28.3371 28.5054,58.8321 28.5054,91.4996 0,33.3331 -9.5018,64.0036 -28.5054,92.0043 -18.9963,28.0007 -44.6636,50.3325 -76.9945,66.9953 -32.3383,16.6702 -67.5001,25.0016 -105.5,25.0016l-232 0 0.994799 -649.999 45 0zm-0.994799 603.997l187 0c29.9976,0 57.6618,-6.16629 82.9999,-18.4989 25.3308,-12.3326 45.4974,-28.9955 60.4999,-49.996 14.9951,-21.0005 22.5,-44.1662 22.5,-69.5043 0,-24.6652 -7.50488,-47.4943 -22.5,-68.4949 -15.0025,-21.0005 -35.1691,-37.6707 -60.4999,-50.0033 -25.3381,-12.3326 -53.0023,-18.4989 -82.9999,-18.4989l-186.006 0 -0.994799 274.996z"
   id="glyph44" />
   <glyph
   unicode="R"
   horiz-adv-x="617"
   d="M475.002 0l-270 327.998 80.0009 0c49.3303,0 89.3271,6.33453 119.998,19.0036 22.6683,10.6648 42.3302,26.8303 59.0004,48.4965 16.6629,21.6661 25.0016,45.5048 25.0016,71.5012 0,23.3339 -7.00017,45.4974 -21.0005,66.4979 -14.0003,21.0005 -33.9987,38.1681 -60.0025,51.5028 -25.9964,13.3347 -56.0013,19.9984 -90.0001,19.9984l-181.997 0 0 -604.999 -45 0 0 649.999 226.997 0c30.6705,0 59.3368,-4.83502 85.9989,-14.4977 26.6694,-9.67003 50.0033,-23.5021 70.0017,-41.5036 19.3328,-17.3285 34.167,-36.9978 44.5026,-59.0004 10.3284,-21.9953 15.4999,-44.6636 15.4999,-67.9975 0,-36.6686 -11.0013,-69.497 -33.0039,-98.4998 -21.9953,-29.0028 -47.9991,-49.8351 -77.9966,-62.4968 -20.6713,-9.33356 -40.838,-15.1707 -60.4999,-17.5041 -19.6692,-2.33339 -40.5015,-3.49643 -62.5041,-3.49643l234.999 -285.003 -59.9952 0z"
   id="glyph46" />
   <glyph
   unicode="S"
   horiz-adv-x="617"
   d="M441.998 315c30.6705,-17.3358 54.5018,-38.4973 71.5012,-63.4989 16.9994,-25.0016 25.499,-51.832 25.499,-80.4983 0,-24.6725 -5.99805,-48.1673 -18.0015,-70.5064 -11.9961,-22.3318 -29.3319,-41.8328 -52.0002,-58.4957 -46.6605,-33.3331 -100.994,-50.0033 -162.993,-50.0033 -30.6705,0 -60.0025,4.33762 -88.0032,13.0055 -28.0007,8.66061 -53.0023,20.9932 -74.9976,36.9978 -37.9999,28.0007 -61.0046,62.3359 -68.9996,102.998l42.9958 23.9995c2.00423,-36.6686 19.9984,-66.6662 54.0044,-90.0001 17.3285,-13.3347 37.6634,-23.5021 60.9973,-30.5023 23.3339,-6.99285 47.9991,-10.4966 74.0028,-10.4966 53.3315,0 98.3315,13.6639 135,40.9989 35.33,26.0038 52.995,56.667 52.995,92.0043 0,20.664 -6.49545,39.9968 -19.501,57.9983 -12.9982,18.0015 -31.1606,33.3331 -54.4945,46.0022 -22.0026,11.3305 -61.3338,20.3276 -118.001,26.9986 -4.66678,0.665638 -21.5052,3.32819 -50.5007,7.99497 -29.0028,4.66678 -53.8362,12.0034 -74.5002,22.0026 -32.6675,15.9972 -58.3347,37.166 -77.0019,63.4989 -18.6671,26.3329 -28.0007,54.8383 -28.0007,85.5015 0,24.6652 6.16629,47.8308 18.4989,69.497 12.3326,21.6661 29.8367,40.838 52.5049,57.5009 21.9953,16.0046 46.9969,28.3371 74.9976,37.0051 28.0007,8.66061 57.3326,12.9982 88.0032,12.9982 61.9994,0 116.333,-16.6702 162.993,-50.0033 38.6728,-29.3319 61.3338,-63.3307 68.0048,-101.996l-43.0031 -23.9995c-0.665638,16.6629 -5.50065,32.6675 -14.4977,47.9991 -8.99708,15.3316 -21.8344,29.3319 -38.4973,42.001 -18.0015,13.3347 -38.6728,23.4948 -62.0067,30.495 -23.3266,7.00017 -47.6626,10.5039 -72.9934,10.5039 -25.3381,0 -49.8351,-3.50374 -73.5054,-10.5039 -23.6631,-7.00017 -44.1662,-17.1603 -61.4947,-30.495 -17.3358,-12.6691 -30.6705,-26.8376 -40.0041,-42.5057 -9.33356,-15.6608 -14.0003,-31.8263 -14.0003,-48.4965 0,-20.664 7.66581,-41.1671 23.0047,-61.502 15.3316,-20.3349 34.3279,-36.1639 56.9961,-47.5017 14.0003,-6.66369 29.5002,-11.4987 46.4996,-14.4977 16.9994,-2.99903 38.8337,-6.16629 65.5031,-9.5018 4.66678,-0.665638 16.3337,-2.33339 35.0008,-4.99594 18.6671,-2.66987 36.6613,-6.33453 53.9971,-11.0013 17.3358,-4.66678 32.0018,-10.3357 43.9979,-16.9994z"
   id="glyph48" />
   <glyph
   unicode="U"
   horiz-adv-x="679"
   d="M339 -7.00017c33.9987,0 66.0005,6.50277 95.9981,19.501 30.0049,12.9982 56.667,31.4971 80.0009,55.4966 23.3339,22.6683 41.1671,49.3377 53.4997,80.0009 12.3326,30.6705 18.4989,63.0015 18.4989,97.0002l0 405 -45 0 0 -405c0,-28.0007 -5.16418,-54.6628 -15.4999,-80.0009 -10.3284,-25.3308 -24.8334,-47.3334 -43.5005,-66.0005 -19.3328,-19.3328 -41.3281,-34.167 -66.0005,-44.4953 -24.6652,-10.3357 -50.6616,-15.4999 -77.9966,-15.4999 -26.6694,0 -52.3367,5.16418 -77.0019,15.4999 -24.6652,10.3284 -46.6678,25.1626 -66.0005,44.4953 -18.6671,18.6671 -33.1649,40.6697 -43.5005,66.0005 -10.3284,25.3381 -15.4999,52.0002 -15.4999,80.0009l0 405 -45 0 0 -405c0,-33.9987 6.16629,-66.3297 18.5062,-97.0002 12.3326,-30.6632 30.1658,-57.3326 53.4997,-80.0009 23.3339,-23.9995 50.1642,-42.4984 80.4983,-55.4966 30.3341,-12.9982 61.8312,-19.501 94.4986,-19.501z"
   id="glyph50" />
   <glyph
   unicode="V"
   horiz-adv-x="687"
   d="M341.999 101.001l246.001 548.998 50.0033 0 -296.004 -661 -295.002 661 49.0012 0 246.001 -548.998z"
   id="glyph52" />
  </font>
</defs>
</svg>
